Lien directe | Just Because! 1 VOSTFR | December 2015
Make Home|Add to Favorites
 

 
pablocuriel.com » Tutorials » The Odyssey - Series 1 (1992-93)

The Odyssey - Series 1 (1992-93)
The Odyssey - Series 1 (1992-93)
English | Size: 2.22 GB
Category: Tutorial

Storyline



"The Odyssey - Series 1 (1992-93)"

HI-SPEED DOWNLOAD
Free 300 GB with Full DSL-Broadband Speed!



The Odyssey - Series 1 (1992-93)
The Odyssey - Series 1 (1992-93)
English | Size: 2.22 GB
Category: Tutorial

Storyline





Following an accident, young Jay Ziegler falls into a coma. While his family and
friends must continue their lives in the Real World, Jay finds himself in the magical
Downworld on a quest to return home.

Cast

Illya Woloshyn ... Jay Ziegler (38 episodes, 1992-1994)
Tony Sampson ... Flash (38 episodes, 1992-1994)
Ashleigh Aston Moore ... Alpha (37 episodes, 1992-1994)
Janet Hodgkinson ... Mrs. Ziegler (36 episodes, 1992-1994)
Andrea Nemeth ... Medea (25 episodes, 1992-1994)
Mark Hildreth ... Finger (24 episodes, 1992-1994)
Jeremy Radick ... Fractal (18 episodes, 1993-1994)
Dwight Koss ... Dr. Max Oswald (17 episodes, 1992-1994)


General
Complete name : G:\The Odyssey S1 E01.avi
Format : AVI
Format/Info : Audio Video Interleave
File size : 175 MiB
Duration : 23mn 35s
Overall bit rate mode : Variable
Overall bit rate : 1 034 Kbps
Writing application : VirtualDubMod 1.5.10.1 (build 2439/release)
Writing library : VirtualDubMod build 2439/release

Video
ID : 0
Format : MPEG-4 Visual
Format profile : Advanced
Format settings, BVOP : 2
Format settings, QPel : Yes
Format settings, GMC : No warppoints
Format settings, Matrix : Default (H.263)
Muxing mode : Packed bitstream
Codec ID : XVID
Codec ID/Hint : XviD
Duration : 23mn 35s
Bit rate : 901 Kbps
Width : 448 pixels
Height : 336 pixels
Display aspect ratio : 4:3
frame rate : 23.976 fps
Color space : YUV
Chroma subsampling : 4:2:0
Bit depth : 8 bits
Scan type : Progressive
Compression mode : Lossy
Bits/(Pixel*frame) : 0.250
Stream size : 152 MiB (87%)
Writing library : XviD 1.0.3 (UTC 2004-12-20)

Audio
ID : 1
Format : MPEG Audio
Format version : Version 1
Format profile : Layer 3
Mode : Dual mono
Codec ID : 55
Codec ID/Hint : MP3
Duration : 23mn 35s
Bit rate mode : Variable
Bit rate : 121 Kbps
Nominal bit rate : 128 Kbps
Channel(s) : 2 channels
Sampling rate : 48.0 KHz
Compression mode : Lossy
Stream size : 20.4 MiB (12%)
Alignment : Aligned on interleaves
Interleave, duration : 24 ms (0.58 video frame)
Interleave, preload duration : 139 ms
Writing library : LAME3.96r
Encoding settings : -m d -V 4 -q 3 -lowpass 17.5 --abr 128


Buy Premium Account & Support me

uploadgig_com:
http://filefox.cc/fhgogwe2l8di/e2288.The.Odyssey..Series.1.199293.part3.rar
http://filefox.cc/nqgyvw6404ty/e2288.The.Odyssey..Series.1.199293.part2.rar
http://filefox.cc/d53bubtjpauf/e2288.The.Odyssey..Series.1.199293.part4.rar
http://filefox.cc/4vwyzufoi3em/e2288.The.Odyssey..Series.1.199293.part1.rar

or

http://uploadgig.com/file/download/27d460c703090962/e2288.The.Odyssey..Series.1.199293.part1.rar
http://uploadgig.com/file/download/678A715ad6Be3735/e2288.The.Odyssey..Series.1.199293.part2.rar
http://uploadgig.com/file/download/fa125581aFeeae52/e2288.The.Odyssey..Series.1.199293.part3.rar
http://uploadgig.com/file/download/739cAbFcdaeeCFC1/e2288.The.Odyssey..Series.1.199293.part4.rar

The Odyssey - Series 1 (1992-93)


14 Days Free Access to USENET
Free 300 GB with 10 GB High-Speed



Tags: Odyssey, Series

The Odyssey - Series 1 (1992-93) Fast Download via Rapidshare Upload Filehosting Megaupload, The Odyssey - Series 1 (1992-93) Torrents and Emule Download or anything related.